<?xml version="1.0" standalone="no"?>
<!DOCTYPE svg PUBLIC "-//W3C//DTD SVG 1.1//EN" "http://www.w3.org/Graphics/SVG/1.1/DTD/svg11.dtd">
<svg xmlns="http://www.w3.org/2000/svg">
<defs >
<font id="DMSerifDisplay" horiz-adv-x="561" ><font-face
    font-family="DM Serif Display"
    units-per-em="1000"
    panose-1="0 0 0 0 0 0 0 0 0 0"
    ascent="1036"
    descent="-335"
    alphabetic="0" />
<glyph unicode=" " glyph-name="space" horiz-adv-x="218" />
<glyph unicode="!" glyph-name="exclam" horiz-adv-x="333" d="M167 672Q204 672 225 649T246 587Q246 556 230 491T197 346L176 241H157L136 346Q120 423 104 488T88 587Q88 625 109 648T167 672ZM167 -15Q130 -15 105 10T80 71Q80 106 105 131T167 157Q203 157
228 132T253 71Q253 35 228 10T167 -15Z" />
<glyph unicode="&quot;" glyph-name="quotedbl" horiz-adv-x="425" d="M102 403L82 470Q74 504 64 541T47 610T40 656Q40 691 60 711T111 731Q141 731 162 711T183 656Q183 641 176 610T159 542T141 470L121 403H102ZM304 403L284 470Q276 504 266 541T249 610T242
656Q242 691 262 711T313 731Q343 731 364 711T385 656Q385 641 378 610T361 542T343 470L323 403H304Z" />
<glyph unicode="#" glyph-name="numbersign" horiz-adv-x="557" d="M110 0L137 175H20V212H142L176 432H53V469H181L208 644H241L214 469H392L419 644H452L425 469H538V432H420L386 212H505V175H381L354 0H321L348 175H170L143 0H110ZM175 212H353L387 432H209L175 212Z" />
<glyph unicode="$" glyph-name="dollar" horiz-adv-x="532" d="M261 -15Q165 -15 108 18T50 112Q50 141 67 158T110 176Q135 176 153 161T176 107L179 91Q186 45 206 25T262 5V252L232 263Q147 292 101 339T54 459Q54 539 109 592T263 649V739H287V649Q375 647
424 610T474 521Q474 491 459 475T416 459Q393 459 375 475T348 535L344 558Q338 589 326 604T287 623V388L305 382Q410 348 452 297T495 178Q495 125 470 84T397 16T286 -14V-115H262V-15H261ZM160 519Q160 473 185 443T263 395V624Q239 622 215 610T176 576T160
519ZM385 127Q385 172 363 197T286 244V6Q332 13 358 45T385 127Z" />
<glyph unicode="%" glyph-name="percent" horiz-adv-x="871" d="M226 -21L206 -7L657 654L678 640L226 -21ZM207 649Q246 649 280 628T336 561T357 443Q357 373 336 328T281 261T207 239Q168 239 134 260T78 327T57 443Q57 515 78 560T133 627T207 649ZM151 443Q151
367 158 327T179 272T207 257Q223 257 235 272T255 327T263 443Q263 519 256 559T236 614T207 630Q192 630 179 615T159 560T151 443ZM664 401Q703 401 737 380T793 313T814 195Q814 125 793 80T738 13T664 -9Q625 -9 591 12T535 79T514 195Q514 267 535 312T590
379T664 401ZM608 195Q608 119 615 79T636 24T664 9Q680 9 692 24T712 79T720 195Q720 271 713 311T693 366T664 382Q649 382 636 367T616 312T608 195Z" />
<glyph unicode="&amp;" glyph-name="ampersand" horiz-adv-x="721" d="M231 -15Q165 -15 119 9T48 74T24 163Q24 284 180 349Q152 387 131 426T109 517Q109 588 159 630T292 673Q372 673 416 638T460 544Q460 495 420 458T306 390Q325 369 345 346T388 299Q415
269 440 242T492 186Q516 219 537 266T570 365Q578 403 541 414L534 417V427H647V417L638 414Q605 403 595 368Q580 312 558 262T507 171L614 58Q627 44 640 35T669 17L683 10V0H481L414 72Q395 51 371 31T313 -2T231 -15ZM294 403Q333 438 350 473T368 552Q368
591 348 615T293 640Q260 640 238 616T216 555Q216 532 224 507T255 450Q261 442 271 431T294 403ZM289 52Q324 52 352 62T400 89Q376 116 350 145T301 202Q273 235 247 268T194 332Q168 308 156 276T144 209Q144 141 184 97T289 52Z" />
<glyph unicode="&apos;" glyph-name="quotesingle" horiz-adv-x="223" d="M102 403L82 470Q74 504 64 541T47 610T40 656Q40 691 60 711T111 731Q141 731 162 711T183 656Q183 641 176 610T159 542T141 470L121 403H102Z" />
<glyph unicode="(" glyph-name="parenleft" horiz-adv-x="368" d="M310 -174Q199 -88 137 27T74 278Q74 414 136 529T310 730L322 719Q269 647 239 578T197 436T184 278Q184 193 196 120T239 -23T322 -165L310 -174Z" />
<glyph unicode=")" glyph-name="parenright" horiz-adv-x="368" d="M58 730Q169 644 231 529T294 278Q294 142 232 27T58 -174L46 -163Q99 -91 129 -22T171 120T184 278Q184 363 172 436T129 579T46 721L58 730Z" />
<glyph unicode="*" glyph-name="asterisk" horiz-adv-x="433" d="M216 738Q239 738 251 724T263 688Q263 672 258 648T242 592L228 544L267 573Q305 602 331 613T373 625Q390 625 404 613T418 577Q418 546 384 537T284 524L235 522L274 495Q321 464 340 440T359
393Q359 377 346 363T314 349Q285 349 268 379T232 462L216 507L199 462Q180 403 162 377T117 350Q98 350 85 364T72 394Q72 418 94 442T158 495L196 522L148 524Q79 527 47 537T14 578Q14 601 28 613T59 625Q98 625 165 573L204 544L190 592Q180 624 175 649T170
688Q170 710 182 724T216 738Z" />
<glyph unicode="+" glyph-name="plus" horiz-adv-x="541" d="M259 73V314H30V334H259V571H283V334H512V314H283V73H259Z" />
<glyph unicode="," glyph-name="comma" horiz-adv-x="300" d="M87 -159L81 -145Q115 -124 132 -95T157 -21L124 -7Q95 7 80 29T64 75Q64 110 87 133T147 157Q185 157 208 131T232 54Q232 -1 210 -44T154 -117T87 -159Z" />
<glyph unicode="-" glyph-name="hyphen" horiz-adv-x="332" d="M40 240V267H292V240H40Z" />
<glyph unicode="." glyph-name="period" horiz-adv-x="300" d="M150 -15Q114 -15 89 10T64 70Q64 105 89 131T150 157Q186 157 211 131T236 70Q236 35 211 10T150 -15Z" />
<glyph unicode="/" glyph-name="slash" horiz-adv-x="342" d="M26 -160L293 710H317L50 -160H26Z" />
<glyph unicode="0" glyph-name="zero" horiz-adv-x="502" d="M251 -15Q191 -15 139 19T54 126T22 316Q22 434 54 507T138 615T251 649Q311 649 363 615T448 508T481 316Q481 199 449 126T364 19T251 -15ZM251 5Q276 5 293 18T322 65T338 159T343 316Q343 412 338
473T322 569T294 616T251 629Q226 629 209 616T180 570T164 475T159 316Q159 220 164 159T180 65T208 18T251 5Z" />
<glyph unicode="1" glyph-name="one" horiz-adv-x="350" d="M28 0V10L67 22Q105 35 105 73V557L24 546V559Q83 571 137 593T240 644L253 635L249 492V73Q249 34 287 23L328 10V0H28Z" />
<glyph unicode="2" glyph-name="two" horiz-adv-x="532" d="M69 466L76 608Q106 625 150 637T251 649Q331 649 380 627T452 565T475 477Q475 408 408 343T225 198Q203 182 173 159T117 114H492V0H52V84Q88 119 122 153T188 219Q260 293 295 350T331 474Q331 543
306 585T231 628Q200 628 174 613T127 559L79 466H69Z" />
<glyph unicode="3" glyph-name="three" horiz-adv-x="532" d="M254 -15Q187 -15 145 0T61 35L72 165H82L126 84Q170 5 248 5Q294 5 322 43T351 173Q351 252 327 286T245 321H185V341H238Q291 341 314 373T338 484Q338 561 315 593T254 626Q216 626 191 604T149
552L104 468L94 469L104 616Q136 630 175 639T264 649Q369 649 423 604T478 490Q478 441 436 397T304 335Q406 326 452 280T498 169Q498 117 469 75T385 9T254 -15Z" />
<glyph unicode="4" glyph-name="four" horiz-adv-x="538" d="M287 0V162H24V219L317 642H415V236H510V162H415V0H287ZM68 236H287V551L68 236Z" />
<glyph unicode="5" glyph-name="five" horiz-adv-x="532" d="M244 -15Q186 -15 141 -5T60 30L67 156H77L123 74Q143 38 172 22T236 5Q351 5 351 180Q351 259 321 300T230 341Q202 341 175 334T124 314L106 325L128 634H478V520H148L134 347Q157 364 196 379T278
394Q343 394 393 371T472 304T501 194Q501 127 468 80T376 9T244 -15Z" />
<glyph unicode="6" glyph-name="six" horiz-adv-x="530" d="M270 -15Q163 -15 98 56T32 256Q32 333 62 400T147 520T280 606T453 649L456 634Q334 609 271 542T187 360Q245 394 317 394Q378 394 418 369T478 302T499 206Q499 135 466 86T380 11T270 -15ZM178 235Q178
111 199 58T267 5Q313 5 334 48T356 194Q356 288 334 325T262 362Q220 362 184 341Q178 293 178 235Z" />
<glyph unicode="7" glyph-name="seven" horiz-adv-x="489" d="M99 0L89 10L435 530H27V634H467V569L231 0H99Z" />
<glyph unicode="8" glyph-name="eight" horiz-adv-x="502" d="M28 139Q28 190 69 229T170 292Q43 358 43 472Q43 527 71 566T147 627T256 649Q317 649 358 630T419 578T440 506Q440 476 424 448T382 397T324 359Q399 322 436 276T474 164Q474 83 412 34T246 -15Q140
-15 84 26T28 139ZM160 529Q160 499 171 474T213 423T305 368Q335 403 343 435T351 497Q351 568 324 598T253 629Q214 629 187 603T160 529ZM133 149Q133 85 165 45T251 5Q301 5 327 37T353 122Q353 154 339 179T291 229T195 280Q190 282 185 285Q163 264 152 246T137
205T133 149Z" />
<glyph unicode="9" glyph-name="nine" horiz-adv-x="532" d="M500 381Q500 280 453 198T316 59T94 -20L90 -2Q179 17 233 53T314 144T350 276Q329 262 298 254T228 245Q172 245 128 267T57 333T31 437Q31 502 63 549T147 623T263 649Q377 649 438 578T500 381ZM172
450Q172 359 197 319T279 278Q321 278 352 296Q354 318 355 340T356 388Q356 480 347 532T318 607T264 629Q218 629 195 587T172 450Z" />
<glyph unicode=":" glyph-name="colon" horiz-adv-x="300" d="M150 330Q114 330 89 355T64 415Q64 450 89 476T150 502Q186 502 211 476T236 415Q236 380 211 355T150 330ZM150 -15Q114 -15 89 10T64 70Q64 105 89 131T150 157Q186 157 211 131T236 70Q236 35
211 10T150 -15Z" />
<glyph unicode=";" glyph-name="semicolon" horiz-adv-x="300" d="M150 330Q114 330 89 355T64 415Q64 450 89 476T150 502Q186 502 211 476T236 415Q236 380 211 355T150 330ZM87 -159L81 -145Q115 -124 132 -95T157 -21L124 -7Q95 7 80 29T64 75Q64 110 87 133T147
157Q185 157 208 131T232 54Q232 -1 210 -44T154 -117T87 -159Z" />
<glyph unicode="&lt;" glyph-name="less" horiz-adv-x="541" d="M42 312V338L459 566L471 543L74 325L471 107L459 84L42 312Z" />
<glyph unicode="=" glyph-name="equal" horiz-adv-x="541" d="M30 466V486H512V466H30ZM30 418V438H512V418H30Z" />
<glyph unicode="&gt;" glyph-name="greater" horiz-adv-x="541" d="M499 338V312L82 84L70 107L467 325L70 543L82 566L499 338Z" />
<glyph unicode="?" glyph-name="question" horiz-adv-x="506" d="M253 225L244 395Q291 412 320 448T349 535Q349 595 327 629T272 664Q243 664 228 644T203 590L190 542Q181 508 160 494T115 482T74 503T57 554Q57 594 86 623T162 668T258 684Q359 684 416 641T474
512Q474 453 445 412T371 346T276 306L271 225H253ZM254 -15Q218 -15 193 10T167 71Q167 106 192 131T254 157Q291 157 315 132T340 71Q340 35 316 10T254 -15Z" />
<glyph unicode="@" glyph-name="at" horiz-adv-x="877" d="M398 -153Q291 -153 212 -109T89 13T45 197Q45 287 76 369T167 516T310 618T497 656Q606 656 681 613T795 497T834 333Q834 267 814 214T761 122T687 62T604 41Q551 41 523 70T490 137Q460 88 424 65T349
41Q303 41 269 76T234 183Q234 236 255 288T312 384T389 454T474 481Q520 481 554 453L618 475L643 458L583 125Q578 96 588 80T618 63Q653 63 687 97T744 193T767 336Q767 477 694 555T494 634Q408 634 339 599T221 504T145 368T119 210Q119 101 159 27T269 -85T430
-124Q471 -124 510 -116T586 -92L592 -110Q549 -130 500 -141T398 -153ZM406 112Q423 112 441 120T479 151L529 426Q519 439 505 444T477 449Q449 449 419 418T367 334T345 215Q345 163 363 138T406 112Z" />
<glyph unicode="A" glyph-name="A" horiz-adv-x="650" d="M8 0V10L33 19Q53 27 64 38T82 71L288 662H373L576 67Q584 45 594 34T625 14L637 10V0H383V10L398 15Q419 23 423 37T422 72L375 216H153L105 75Q98 53 100 40T124 19L146 10V0H8ZM160 236H369L268 547L160 236Z" />
<glyph unicode="B" glyph-name="B" horiz-adv-x="598" d="M22 0V10L40 17Q60 25 67 37T75 69V591Q75 612 68 624T40 643L22 650V660H309Q431 660 485 616T539 503Q539 452 500 411T364 352Q474 340 525 295T576 184Q576 152 562 120T515 60T423 17T276 0H22ZM223
353H266Q333 353 362 384T392 492Q392 572 365 606T277 640H223V353ZM223 20H273Q348 20 384 60T421 185Q421 265 386 299T271 333H223V20Z" />
<glyph unicode="C" glyph-name="C" horiz-adv-x="603" d="M366 -18Q269 -18 191 21T66 139T20 330Q20 416 48 481T124 590T236 656T371 678Q428 678 476 665T566 629L570 506H560L510 586Q500 605 488 620T458 644Q443 651 429 654T392 658Q334 658 287 627T211
525T182 329Q182 206 209 135T282 33T387 2Q419 2 438 6T476 20Q495 28 505 43T523 77L567 175H577L574 32Q532 10 480 -4T366 -18Z" />
<glyph unicode="D" glyph-name="D" horiz-adv-x="648" d="M22 0V10L43 18Q75 31 75 69V591Q75 631 43 642L22 650V660H286Q392 660 468 621T586 508T628 331Q628 226 583 152T458 39T268 0H22ZM225 20H268Q340 20 384 48T448 144T469 330Q469 448 449 515T385
611T272 640H225V20Z" />
<glyph unicode="E" glyph-name="E" horiz-adv-x="555" d="M22 0V10L45 19Q62 26 68 37T75 69V591Q75 611 70 622T45 641L22 650V660H501L507 506H497L454 600Q445 618 435 629T405 640H225V351H332Q352 351 362 361T381 390L401 430H411V250H401L381 292Q372 310
362 320T332 331H225V20H427Q447 20 458 30T476 60L517 154H527L521 0H22Z" />
<glyph unicode="F" glyph-name="F" horiz-adv-x="538" d="M22 0V10L40 16Q60 23 67 35T74 67Q75 127 75 188T75 310V350Q75 410 75 470T74 591Q74 611 69 623T44 642L22 650V660H506L513 494H503L446 599Q436 618 423 629T387 640H226Q225 569 225 495T225 348H329Q352
348 363 358T384 387L405 425H415V250H405L383 288Q373 306 363 317T329 328H225Q225 258 225 195T226 70Q226 31 264 19L294 10V0H22Z" />
<glyph unicode="G" glyph-name="G" horiz-adv-x="656" d="M364 -18Q262 -18 185 24T64 145T20 331Q20 435 63 513T187 634T385 678Q438 678 483 666T570 631L574 491H564L508 595Q495 620 484 631T456 648Q440 653 427 655T391 658Q329 658 282 625T208 520T182
331Q182 215 206 142T276 36T380 2Q389 2 397 3T414 7Q433 10 439 23T445 54V252Q445 291 405 300L359 312V322H641V312L627 308Q589 296 589 258V41Q537 12 484 -3T364 -18Z" />
<glyph unicode="H" glyph-name="H" horiz-adv-x="691" d="M22 0V10L42 18Q62 25 68 37T75 68V591Q75 611 69 623T42 642L22 650V660H276V650L259 643Q240 636 233 625T226 593V350H465V593Q465 613 459 624T432 643L414 650V660H669V650L649 642Q630 635 623 623T616
591V68Q616 49 623 37T649 18L669 10V0H414V10L432 16Q452 24 458 35T465 67V330H226V67Q226 30 259 16L276 10V0H22Z" />
<glyph unicode="I" glyph-name="I" horiz-adv-x="301" d="M22 0V10L42 18Q62 25 68 37T75 69V591Q75 611 69 623T42 642L22 650V660H279V650L259 642Q239 635 233 623T226 591V69Q226 49 232 38T259 18L279 10V0H22Z" />
<glyph unicode="J" glyph-name="J" horiz-adv-x="427" d="M109 -18Q60 -18 34 1T7 52Q7 80 26 95T72 110Q98 110 118 99T155 59L173 28Q178 21 185 21T196 30Q202 50 204 88T207 182Q207 245 204 344T198 588Q198 631 166 642L143 650V660H405V650L383 642Q365
635 359 624T352 591V393Q352 295 343 231T314 120Q289 53 233 18T109 -18Z" />
<glyph unicode="K" glyph-name="K" horiz-adv-x="654" d="M22 0V10L43 18Q63 25 69 37T75 68V591Q75 611 69 623T43 642L22 650V660H271V650L249 641Q232 635 226 623T220 590V67Q220 47 226 36T252 18L271 10V0H22ZM391 0V10L404 14Q424 20 425 34T413 66L221
339L474 597Q488 611 489 624T470 644L453 650V660H599V650L573 642Q551 635 538 625T508 598L329 415L564 72Q579 50 592 36T631 14L645 10V0H391Z" />
<glyph unicode="L" glyph-name="L" horiz-adv-x="540" d="M22 0V10L43 18Q64 26 69 37T75 69V591Q75 611 69 623T43 642L22 650V660H277V650L259 642Q240 635 233 623T226 590V20H380Q417 20 434 38T468 90L507 174H517L508 0H22Z" />
<glyph unicode="M" glyph-name="M" horiz-adv-x="791" d="M20 0V10L40 17Q74 28 74 74V586Q74 606 70 618T46 638L20 650V660H213L398 176L572 660H769V650L753 644Q734 637 727 625T720 592V69Q720 49 725 38T749 19L769 10V0H520V10L541 19Q560 27 565 38T570
69V294L572 580L363 0H313L95 573L98 324V72Q98 50 104 37T130 17L152 10V0H20Z" />
<glyph unicode="N" glyph-name="N" horiz-adv-x="653" d="M35 0V10L68 20Q86 25 94 39T102 74V555Q91 579 85 591T70 611T48 633L31 650V660H208L540 207V584Q540 604 534 620T507 641L474 650V660H617V650L590 641Q572 635 568 620T564 585V-3H508L126 522V74Q126
54 132 40T157 20L187 10V0H35Z" />
<glyph unicode="O" glyph-name="O" horiz-adv-x="670" d="M335 -18Q274 -18 218 4T117 69T46 178T20 330Q20 416 46 481T117 589T218 655T335 678Q396 678 452 657T553 592T624 483T650 330Q650 245 624 180T554 71T453 5T335 -18ZM335 3Q390 3 424 32T473 133T489
330Q489 456 474 527T424 628T335 658Q281 658 247 629T198 528T182 330Q182 205 197 134T247 33T335 3Z" />
<glyph unicode="P" glyph-name="P" horiz-adv-x="565" d="M22 0V10L42 17Q62 23 68 35T75 67V591Q75 611 68 623T41 642L22 650V660H265Q414 660 480 606T547 462Q547 405 520 358T429 282T259 254H225V70Q225 31 264 19L294 10V0H22ZM225 274H263Q312 274 343
290T389 346T404 457Q404 529 388 569T339 624T259 640H225V274Z" />
<glyph unicode="Q" glyph-name="Q" horiz-adv-x="670" d="M335 -18Q271 -18 214 5L170 -57Q235 -73 318 -91T483 -127Q522 -135 541 -135T577 -124L604 -107L612 -118L561 -173Q539 -196 518 -210T471 -225Q450 -225 411 -219T324 -203T228 -183T141 -164Q125
-160 112 -162T87 -178L75 -190L63 -181L189 17Q116 54 68 132T20 330Q20 416 46 481T117 589T218 655T335 678Q396 678 452 657T553 592T624 483T650 330Q650 245 624 180T554 71T453 5T335 -18ZM335 3Q390 3 424 32T473 133T489 330Q489 456 474 527T424 628T335
658Q281 658 247 629T198 528T182 330Q182 205 197 134T247 33T335 3Z" />
<glyph unicode="R" glyph-name="R" horiz-adv-x="628" d="M22 0V10L43 17Q63 24 69 35T75 68V591Q75 611 70 622T45 641L22 650V660H308Q426 660 489 616T552 492Q552 448 519 404T415 336L554 60Q563 43 574 33T605 14L618 9V0H439L291 315H223V68Q223 49 229
37T254 19L278 10V0H22ZM223 335H271Q343 335 375 373T407 488Q407 565 377 602T276 640H223V335Z" />
<glyph unicode="S" glyph-name="S" horiz-adv-x="521" d="M237 -18Q182 -18 125 -5T30 31L35 167H45L76 102Q90 74 106 53T150 19Q170 9 188 6T230 2Q291 2 326 35T362 120Q362 169 338 196T261 250L220 268Q134 306 86 355T37 487Q37 546 67 589T152 655T280
678Q333 678 380 664T463 626L457 506H447L406 581Q389 616 372 630T333 651Q320 655 309 656T281 658Q230 658 195 629T160 549Q160 498 187 468T266 413L312 393Q408 351 450 304T492 181Q492 93 426 38T237 -18Z" />
<glyph unicode="T" glyph-name="T" horiz-adv-x="627" d="M156 0V10L197 20Q238 29 238 70V640H153Q116 640 100 621T66 567L30 497H20L25 660H602L606 497H596L560 567Q543 601 527 620T474 640H389V70Q389 29 430 20L471 10V0H156Z" />
<glyph unicode="U" glyph-name="U" horiz-adv-x="649" d="M339 -18Q263 -18 205 9T114 94T81 249V594Q81 632 42 644L20 650V660H297V650L268 642Q231 633 231 592V223Q231 130 270 86T382 41Q458 41 502 88T547 221V588Q547 608 541 623T514 644L489 650V660H629V650L602
643Q583 639 577 624T571 589V223Q571 150 542 96T461 12T339 -18Z" />
<glyph unicode="V" glyph-name="V" horiz-adv-x="632" d="M284 -3L70 593Q63 613 52 624T20 642L-4 650V660H284V650L253 641Q230 635 228 620T232 583L380 144L529 584Q537 607 537 622T513 643L487 650V660H627V650L600 642Q581 637 573 625T558 592L358 -3H284Z" />
<glyph unicode="W" glyph-name="W" horiz-adv-x="921" d="M236 -3L59 592Q52 615 44 625T16 645L4 650V660H269V650L248 642Q225 633 217 620T216 584L325 168L443 517L420 588Q413 609 407 620T387 638L365 650V660H616V650L585 638Q565 631 563 618T567 583L694
158L814 575Q821 599 819 617T794 643L773 650V660H912V650L886 640Q866 633 858 618T844 581L678 -3H609L459 467L305 -3H236Z" />
<glyph unicode="X" glyph-name="X" horiz-adv-x="614" d="M10 0V10L27 15Q48 22 60 33T84 63L238 301L63 599Q53 616 46 625T20 643L4 650V660H272V650L249 643Q228 636 226 621T236 585L339 410L449 584Q462 605 464 622T444 645L424 650V660H563V650L537 642Q518
637 508 626T486 597L352 388L542 63Q553 45 563 36T591 18L610 10V0H330V10L353 16Q377 22 380 38T370 75L251 278L120 71Q107 51 109 35T131 14L145 10V0H10Z" />
<glyph unicode="Y" glyph-name="Y" horiz-adv-x="590" d="M165 0V10L195 18Q230 28 230 68V258L65 594Q56 614 49 624T26 641L8 650V660H276V650L258 643Q236 634 234 619T242 580L360 318L492 590Q500 606 499 623T477 645L463 650V660H583V650L564 643Q545 636
536 624T518 592L381 304V68Q381 48 388 36T415 18L446 10V0H165Z" />
<glyph unicode="Z" glyph-name="Z" horiz-adv-x="560" d="M20 0V12L367 640H177Q144 640 124 625T87 581L41 500H31L38 660H527V648L180 20H398Q431 20 450 35T486 80L529 160H539L532 0H20Z" />
<glyph unicode="[" glyph-name="bracketleft" horiz-adv-x="342" d="M100 -159Q102 -82 102 -2T103 158V398Q103 477 103 556T100 715H323V690L214 679Q213 615 213 539T212 398V158Q212 95 212 19T214 -123L323 -134V-159H100Z" />
<glyph unicode="\" glyph-name="backslash" horiz-adv-x="336" d="M290 -160L23 710H47L314 -160H290Z" />
<glyph unicode="]" glyph-name="bracketright" horiz-adv-x="342" d="M242 715Q240 638 240 558T239 398V158Q239 79 239 0T242 -159H19V-134L128 -123Q129 -59 129 17T130 158V398Q130 461 130 537T128 679L19 690V715H242Z" />
<glyph unicode="^" glyph-name="asciicircum" horiz-adv-x="541" d="M94 213L70 229L252 499H290L472 229L447 213L271 401L94 213Z" />
<glyph unicode="_" glyph-name="underscore" horiz-adv-x="532" d="M40 -55V-28H492V-55H40Z" />
<glyph unicode="`" glyph-name="grave" horiz-adv-x="400" d="M258 563Q236 580 207 602T135 655Q104 677 91 693T77 729Q77 747 91 759T125 772Q145 772 161 758T194 711Q219 664 237 632T270 573L258 563Z" />
<glyph unicode="a" glyph-name="a" horiz-adv-x="518" d="M166 -15Q108 -15 69 18T29 113Q29 160 77 199T228 259Q244 262 264 265T306 273V352Q306 420 290 447T238 475Q214 475 200 460T182 406L180 395Q178 352 159 332T112 312Q86 312 69 328T52 371Q52 412
80 440T156 482T258 496Q347 496 395 453T444 311V90Q444 45 486 45H508L517 37Q498 13 476 0T412 -13Q368 -13 343 7T309 62Q279 30 248 8T166 -15ZM227 46Q247 46 264 55T306 85V253Q296 251 286 249T263 245Q217 233 190 205T162 128Q162 87 181 67T227 46Z"
/>
<glyph unicode="b" glyph-name="b" horiz-adv-x="581" d="M191 -13L22 0V10L32 12Q71 21 71 62V597Q71 618 65 629T38 644L24 648V658L202 701L214 692L210 551V450Q243 473 282 484T361 496Q418 496 462 470T531 388T557 245Q557 158 529 101T453 14T348 -15Q311
-15 274 -5T207 23L191 -13ZM298 19Q330 19 354 39T392 107T406 241Q406 326 393 372T357 436T300 454Q253 454 213 428V44Q232 32 252 26T298 19Z" />
<glyph unicode="c" glyph-name="c" horiz-adv-x="494" d="M268 -15Q200 -15 145 14T57 100T24 239Q24 320 59 377T154 465T285 496Q343 496 383 477T444 428T465 364Q465 336 448 321T404 305Q375 305 357 326T336 381Q335 403 337 418T337 450Q333 467 325 472T301
478Q240 478 207 425T173 256Q173 155 210 102T326 48Q373 48 402 65T458 116L468 108Q443 49 391 17T268 -15Z" />
<glyph unicode="d" glyph-name="d" horiz-adv-x="574" d="M232 -15Q173 -15 126 11T52 93T24 236Q24 324 55 381T137 467T248 496Q283 496 315 489T372 468V598Q372 619 366 629T338 643L319 647V657L501 701L512 692L508 552V63Q508 43 515 31T541 13L550 10V0L379
-11L370 25Q343 7 309 -4T232 -15ZM290 22Q332 22 367 47V444Q330 468 291 468Q243 468 209 413T175 238Q175 119 207 71T290 22Z" />
<glyph unicode="e" glyph-name="e" horiz-adv-x="507" d="M271 496Q336 496 382 470T452 398T477 294Q477 283 476 272T472 251H174Q175 143 212 96T324 48Q374 48 405 64T463 111L473 102Q442 47 391 16T267 -15Q196 -15 141 15T55 103T24 239Q24 321 60 378T152
466T271 496ZM268 476Q239 476 219 459T187 397T174 271H345Q355 380 337 428T268 476Z" />
<glyph unicode="f" glyph-name="f" horiz-adv-x="343" d="M22 0V10L35 13Q54 18 65 30T76 63Q76 100 76 136T77 210V461H21V472L43 476Q63 478 72 490T85 523Q95 562 114 591T159 646Q197 682 239 696T323 711Q363 711 396 695T429 640Q429 613 413 598T368 582Q344
582 324 595T285 641L271 658Q260 672 249 672T233 655Q226 620 223 573T219 481H331V461H219V65Q219 27 259 16L284 10V0H22Z" />
<glyph unicode="g" glyph-name="g" horiz-adv-x="531" d="M238 173Q169 173 121 196V162Q121 131 152 125L340 90Q387 81 425 67T486 26T509 -47Q509 -96 477 -137T383 -204T227 -230Q147 -230 100 -214T34 -171T14 -116Q14 -80 38 -44T99 15Q68 27 54 46T40 87Q40
107 50 124T76 160L109 202Q36 244 36 334Q36 406 87 451T239 496Q290 496 328 484T392 450Q424 455 452 466T504 498L518 488V437H405Q441 397 441 334Q441 264 390 219T238 173ZM237 193Q277 193 295 226T314 336Q314 413 296 444T239 476Q202 476 183 444T164
334Q164 257 181 225T237 193ZM88 -84Q88 -143 124 -173T240 -203Q323 -203 365 -176T407 -100Q407 -72 387 -55T317 -29L136 5Q128 7 120 9Q106 -11 97 -36T88 -84Z" />
<glyph unicode="h" glyph-name="h" horiz-adv-x="580" d="M23 0V10L35 14Q71 26 71 64V598Q71 619 64 629T37 644L22 648V658L198 701L214 692L210 551V426Q245 455 285 475T375 496Q440 496 478 459T517 345V63Q517 43 525 31T553 13L561 10V0H327V10L339 13Q375
25 375 64V378Q375 418 362 433T314 448Q292 448 266 440T213 410V62Q213 23 249 12L257 10V0H23Z" />
<glyph unicode="i" glyph-name="i" horiz-adv-x="280" d="M140 548Q106 548 83 569T59 624Q59 658 82 679T140 700Q174 700 197 679T220 624Q220 591 197 570T140 548ZM22 0V10L36 14Q56 20 63 32T71 64V377Q71 398 64 408T36 423L22 426V436L205 495L215 485L212
343V63Q212 43 219 31T246 13L256 10V0H22Z" />
<glyph unicode="j" glyph-name="j" horiz-adv-x="281" d="M148 548Q114 548 91 569T68 624Q68 658 91 679T148 700Q182 700 205 679T229 624Q229 591 206 570T148 548ZM0 -240Q-57 -240 -82 -221T-107 -170Q-107 -142 -87 -125T-40 -108Q-13 -108 9 -121T43 -164L53
-186Q60 -197 69 -194T79 -162V376Q79 399 69 409T38 424L23 426V436L210 495L222 485L219 343V65Q219 0 214 -44T195 -118T156 -175Q121 -210 80 -225T0 -240Z" />
<glyph unicode="k" glyph-name="k" horiz-adv-x="582" d="M22 0V10L37 15Q71 26 71 64V599Q71 619 63 629T35 645L22 648V658L205 701L217 692L214 552V64Q214 24 247 14L261 10V0H22ZM393 0L215 250L400 421Q413 433 415 446T398 466L381 471V481H530V471L500
463Q478 456 465 447T432 420L320 315L499 66Q515 44 529 32T565 12L569 10V0H393Z" />
<glyph unicode="l" glyph-name="l" horiz-adv-x="286" d="M23 0V10L35 14Q71 26 71 64V599Q71 619 63 629T35 645L22 648V658L205 701L217 692L213 552V210Q213 173 213 137T214 64Q214 44 222 32T249 13L262 10V0H23Z" />
<glyph unicode="m" glyph-name="m" horiz-adv-x="871" d="M20 0V10L34 14Q53 19 60 31T69 63V376Q69 398 62 408T35 423L20 427V437L191 495L201 485L209 417Q242 450 284 473T373 496Q421 496 450 477T494 416Q533 453 578 474T667 496Q738 496 771 462T805 355V62Q805
23 841 13L852 10V0H621V10L631 13Q650 19 657 31T665 63V369Q665 411 650 426T602 442Q576 442 552 431T500 396Q505 380 506 361T508 321V62Q509 23 544 13L553 10V0H321V10L335 14Q354 20 361 31T369 63V368Q369 408 355 425T305 442Q282 442 259 431T211 397V62Q211
23 246 13L255 10V0H20Z" />
<glyph unicode="n" glyph-name="n" horiz-adv-x="578" d="M20 0V10L34 14Q69 24 69 63V376Q69 398 62 408T35 423L20 427V437L191 495L201 485L209 425Q244 456 288 476T375 496Q441 496 476 460T512 350V62Q512 23 550 13L559 10V0H323V10L336 14Q371 25 371
63V382Q371 446 307 446Q263 446 211 402V62Q211 23 246 13L255 10V0H20Z" />
<glyph unicode="o" glyph-name="o" horiz-adv-x="545" d="M273 -15Q197 -15 141 16T55 106T24 242Q24 320 56 377T145 465T273 496Q344 496 400 466T488 378T521 242Q521 163 491 106T405 17T273 -15ZM273 5Q308 5 329 25T359 96T369 240Q369 334 360 385T329
456T273 476Q238 476 217 456T186 385T176 240Q176 147 185 96T216 25T273 5Z" />
<glyph unicode="p" glyph-name="p" horiz-adv-x="578" d="M20 -230V-220L32 -216Q69 -206 69 -168V376Q69 398 62 409T34 424L20 427V437L190 495L200 485L209 454Q242 474 282 485T366 496Q452 496 502 431T553 243Q553 123 498 54T341 -15Q262 -15 208 8V-165Q208
-205 244 -215L263 -220V-230H20ZM293 14Q343 14 372 66T402 239Q402 360 374 408T293 457Q256 457 211 433V30Q249 14 293 14Z" />
<glyph unicode="q" glyph-name="q" horiz-adv-x="565" d="M312 -230V-220L333 -215Q371 -204 371 -165V34Q342 12 305 -1T221 -15Q136 -15 80 49T24 235Q24 319 52 377T129 465T244 496Q288 496 324 483T389 450L503 496L513 486L510 351V-168Q510 -209 546 -217L555
-220V-230H312ZM287 25Q329 25 368 57V437Q351 448 333 453T290 458Q237 458 206 407T175 237Q175 122 205 74T287 25Z" />
<glyph unicode="r" glyph-name="r" horiz-adv-x="441" d="M20 0V10L35 14Q55 20 62 32T70 63V376Q70 398 63 408T35 423L20 427V437L192 495L202 485L211 399V391Q225 419 247 442T297 481T352 496Q390 496 410 475T430 422Q430 388 411 370T364 351Q322 351 290
393L288 395Q278 409 265 410T241 398Q231 389 225 377T212 348V69Q212 29 247 19L279 10V0H20Z" />
<glyph unicode="s" glyph-name="s" horiz-adv-x="436" d="M193 -15Q144 -15 105 -4T33 25L34 144H44L78 84Q100 44 126 25T194 5Q242 5 271 26T301 84Q301 117 280 138T202 176L160 189Q99 207 64 245T29 338Q29 404 81 450T230 496Q269 496 303 488T370 462L364
354H354L319 416Q300 449 282 462T226 476Q192 476 162 457T132 403Q132 369 157 349T233 312L278 299Q350 277 381 239T412 146Q412 73 355 29T193 -15Z" />
<glyph unicode="t" glyph-name="t" horiz-adv-x="361" d="M210 -15Q146 -15 111 17T75 119V461H6V471L30 475Q61 482 83 495T128 530L210 621H220L217 481H329V461H216V101Q216 66 231 48T271 30Q292 30 308 40T340 69L350 59Q330 25 295 5T210 -15Z" />
<glyph unicode="u" glyph-name="u" horiz-adv-x="567" d="M201 -15Q162 -15 130 0T79 48T61 137L64 394Q64 417 56 427T31 441L19 445V455L198 490L208 480L203 338V97Q203 65 221 50T268 35Q296 35 318 43T362 67L366 393Q366 416 359 425T333 439L323 442V452L498
490L508 480L505 338V67Q505 45 511 33T537 13L547 10V0L372 -10L363 49Q330 22 292 4T201 -15Z" />
<glyph unicode="v" glyph-name="v" horiz-adv-x="530" d="M244 -3L67 422Q53 456 19 467L5 471V481H264V471L246 467Q207 457 222 415L327 136L425 413Q433 433 429 446T405 465L380 471V481H525V471L496 464Q477 459 467 449T449 419L302 -3H244Z" />
<glyph unicode="w" glyph-name="w" horiz-adv-x="781" d="M225 -3L71 420Q60 452 27 465L10 471V481H255V471L240 467Q201 455 214 419L307 136L390 356L371 413Q364 435 357 446T337 463L320 471V481H527V471L513 465Q498 459 495 449T499 419L591 141L686 417Q700
455 671 465L649 471V481H769V471L745 464Q728 459 721 449T707 420L563 -3H512L401 324L283 -3H225Z" />
<glyph unicode="x" glyph-name="x" horiz-adv-x="568" d="M13 0V10L39 16Q62 21 76 31T104 61L212 216L76 432Q66 447 58 455T33 467L19 471V481H273V471L256 467Q221 456 242 423L324 296L413 419Q424 436 424 447T404 464L379 471V481H525V471L501 465Q479 459
467 450T441 420L336 278L473 65Q498 26 540 15L556 10V0H280V10L297 14Q314 18 318 30T313 59L225 196L130 58Q118 42 122 31T143 15L163 10V0H13Z" />
<glyph unicode="y" glyph-name="y" horiz-adv-x="536" d="M112 -240Q72 -240 49 -220T25 -169Q25 -141 45 -124T90 -107Q115 -107 132 -117T162 -148L169 -156Q191 -186 213 -155Q222 -140 233 -116T260 -50L66 414Q59 433 51 444T25 464L7 471V481H256V472L236
464Q214 457 214 442T221 403L325 133L424 406Q432 429 430 444T405 466L384 471V481H523V471L501 464Q478 457 469 444T452 408L291 -31Q252 -136 213 -188T112 -240Z" />
<glyph unicode="z" glyph-name="z" horiz-adv-x="465" d="M23 0V16L296 461H145Q119 461 104 447T76 410L40 343H30L37 481H437V467L170 20H327Q359 20 374 35T402 76L437 150H447L438 0H23Z" />
<glyph unicode="{" glyph-name="braceleft" horiz-adv-x="338" d="M272 -159Q194 -159 146 -128T97 -32Q97 8 110 41T137 106T151 168Q151 209 127 232T40 265V291Q102 301 126 324T151 388Q151 420 138 450T111 515T97 588Q97 653 145 684T272 715H308V695L288
693Q246 688 226 666T206 607Q206 571 212 539T225 475T232 409Q232 351 201 320T96 278Q169 267 200 237T232 147Q232 113 226 82T213 18T206 -51Q206 -87 226 -109T288 -137L308 -139V-159H272Z" />
<glyph unicode="|" glyph-name="bar" horiz-adv-x="267" d="M121 -250V750H145V-250H121Z" />
<glyph unicode="}" glyph-name="braceright" horiz-adv-x="338" d="M66 715Q144 715 192 684T241 588Q241 548 228 515T201 450T187 388Q187 347 211 324T298 291V265Q236 255 212 232T187 168Q187 136 200 106T227 41T241 -32Q241 -97 193 -128T66 -159H30V-139L50
-137Q92 -132 112 -110T132 -51Q132 -15 126 17T113 81T106 147Q106 205 137 236T242 278Q169 289 138 319T106 409Q106 443 112 474T125 538T132 607Q132 643 112 665T50 693L30 695V715H66Z" />
<glyph unicode="~" glyph-name="asciitilde" horiz-adv-x="541" d="M364 253Q334 253 306 265T248 309Q217 344 199 357T157 371Q132 371 110 349T80 274L64 276Q66 357 96 397T175 437Q209 437 235 424T292 379Q324 345 343 332T383 318Q409 318 431 339T461
414L477 412Q476 341 447 297T364 253Z" />
<glyph unicode="&#xa0;" glyph-name="uni00A0" horiz-adv-x="218" />
<glyph unicode="&#xa1;" glyph-name="exclamdown" horiz-adv-x="333" d="M166 318Q130 318 105 343T80 404Q80 440 105 465T166 490Q203 490 228 465T253 404Q253 369 228 344T166 318ZM166 -197Q129 -197 108 -173T87 -112Q87 -80 103 -15T136 129L157 234H176L197
129Q213 52 229 -13T245 -112Q245 -149 225 -173T166 -197Z" />
<glyph unicode="&#xa2;" glyph-name="cent" horiz-adv-x="532" d="M290 -45V53Q215 54 158 86T68 175T36 309Q36 425 104 494T290 567V654H315V567Q375 565 416 545T478 496T500 435Q500 407 484 393T444 379Q414 379 397 401T373 456L367 489Q363 509 351 525T315
544V112Q377 113 414 133T482 188L498 176Q474 122 428 90T315 54V-45H290ZM174 321Q174 231 202 177T290 114V544Q237 537 206 480T174 321Z" />
<glyph unicode="&#xa3;" glyph-name="sterling" horiz-adv-x="532" d="M43 0V81Q98 117 122 158T147 245Q147 260 145 272T140 296H55V318H132Q123 340 112 361T92 409T84 470Q84 527 113 567T191 628T298 649Q384 649 434 614T485 521Q485 490 468 473T425 456Q398
456 380 474T354 535L351 555Q345 594 331 611T292 629Q252 629 230 590T207 477Q207 431 218 394T235 318H408V296H238Q239 275 237 255Q235 223 216 194T169 139T111 96H489V0H43Z" />
<glyph unicode="&#xa4;" glyph-name="currency" horiz-adv-x="534" d="M92 325Q92 357 101 384T128 434L95 452Q64 469 45 485T26 524Q26 541 38 553T68 566Q90 566 106 547T140 497L158 463Q205 499 267 499Q329 499 375 463L394 497Q411 528 427 547T465 566Q482
566 495 554T508 524Q508 502 489 486T439 452L405 434Q422 413 431 385T441 325Q441 293 432 266T405 217L439 198Q470 182 489 165T508 127Q508 110 496 97T465 84Q444 84 428 103T394 153L376 187Q329 151 267 151Q206 151 159 187L140 153Q123 122 107 103T68
84Q52 84 39 96T26 127Q26 148 45 164T95 198L129 216Q112 238 102 265T92 325ZM165 325Q165 277 195 248T267 218Q308 218 338 247T368 325Q368 372 338 402T267 432Q226 432 196 402T165 325Z" />
<glyph unicode="&#xa5;" glyph-name="yen" horiz-adv-x="532" d="M142 0V10L160 16Q197 28 198 66V163H66V185H198V282L195 289H66V312H183L51 579Q39 605 10 620L2 624V634H229V624L222 621Q186 607 201 573L314 318L435 580Q449 609 419 620L411 624V634H515V624L506
620Q473 607 458 575L338 312H465V289H335V190Q335 187 335 185H465V163H335Q335 141 335 116T335 66Q336 28 373 16L391 10V0H142Z" />
<glyph unicode="&#xa6;" glyph-name="brokenbar" horiz-adv-x="267" d="M145 320H121V750H145V320ZM121 -250V200H145V-250H121Z" />
<glyph unicode="&#xa7;" glyph-name="section" horiz-adv-x="522" d="M244 -107Q159 -107 109 -78T59 2Q59 29 77 46T120 64Q147 64 163 49T190 1L201 -31Q209 -53 226 -70T275 -87Q309 -87 330 -65T351 -7Q351 25 336 45T291 83T211 122Q129 156 86 194T43 299Q43
335 64 366T123 419Q81 462 81 523Q81 563 103 598T169 655T278 677Q362 677 411 644T460 561Q460 536 445 521T405 506Q382 506 363 521T329 579L319 607Q312 628 299 643T258 658Q223 658 201 636T178 579Q178 532 210 504T299 452Q397 416 438 378T480 282Q480
237 458 206T400 154Q421 134 431 109T442 51Q442 10 419 -26T352 -85T244 -107ZM261 231Q300 217 331 202T385 168Q405 194 405 231Q405 263 369 288T258 342Q179 371 138 405Q120 379 120 347Q120 301 156 278T261 231Z" />
<glyph unicode="&#xa8;" glyph-name="dieresis" horiz-adv-x="400" d="M316 580Q288 580 266 598T243 649Q243 681 265 699T316 718Q346 718 367 700T389 649Q389 617 368 599T316 580ZM84 580Q55 580 33 598T11 649Q11 681 33 699T84 718Q113 718 135 700T157
649Q157 617 135 599T84 580Z" />
<glyph unicode="&#xa9;" glyph-name="copyright" horiz-adv-x="747" d="M374 -18Q304 -18 242 6T133 76T58 186T30 331Q30 411 57 475T132 584T242 654T374 678Q444 678 506 654T615 585T690 475T718 331Q718 251 691 187T616 77T506 7T374 -18ZM374 6Q460 6 531
46T644 159T687 331Q687 430 645 502T531 614T374 654Q288 654 217 615T104 503T61 331Q61 232 103 159T217 46T374 6ZM392 127Q335 127 289 150T216 220T189 331Q189 397 217 443T293 514T395 538Q430 538 457 531T510 509L512 414H502L480 460Q467 488 447 503T406
518Q360 518 326 471T292 332Q292 240 326 194T406 147Q434 147 452 161T485 206L507 251H517L514 156Q490 143 460 135T392 127Z" />
<glyph unicode="&#xaa;" glyph-name="ordfeminine" horiz-adv-x="354" d="M297 474Q297 450 314 450Q319 450 324 453T337 464L353 452Q341 427 324 417T281 407Q223 407 210 457Q185 433 165 419T112 405Q74 405 49 427T24 489Q24 521 48 546T148 594Q172 601
207 610V631Q207 675 195 691T150 707Q138 707 127 705L121 671Q119 644 106 632T75 619Q40 619 34 651Q39 690 77 714T182 739Q243 739 270 712T297 619V474ZM111 503Q111 478 124 467T155 455Q167 455 177 461T207 480V583Q195 579 185 576T166 569Q111 547 111
503Z" />
<glyph unicode="&#xab;" glyph-name="guillemotleft" horiz-adv-x="536" d="M258 36L27 239V262L258 465L268 456L136 250L268 45L258 36ZM472 36L241 239V262L472 465L482 456L350 250L482 45L472 36Z" />
<glyph unicode="&#xac;" glyph-name="logicalnot" horiz-adv-x="541" d="M27 357V377H477V148H457V357H27Z" />
<glyph unicode="&#xad;" glyph-name="uni00AD" horiz-adv-x="332" d="M40 240V267H292V240H40Z" />
<glyph unicode="&#xae;" glyph-name="registered" horiz-adv-x="467" d="M233 311Q178 311 132 335T58 405T30 513Q30 576 58 621T132 690T233 714Q288 714 334 690T409 621T437 513Q437 451 409 406T335 336T233 311ZM233 328Q284 328 325 350T391 414T416 513Q416
571 392 612T326 675T233 697Q183 697 142 675T75 612T50 513Q50 456 75 415T141 351T233 328ZM144 418V428L151 431Q164 437 164 451V585Q164 599 152 605L144 608V617H240Q277 617 296 604T316 567Q316 531 283 518L315 448Q319 437 332 430L338 427V418H270L235
507H217V451Q217 437 230 432L237 428V418H144ZM217 518H226Q248 518 256 531T264 562Q264 605 226 605H217V518Z" />
<glyph unicode="&#xaf;" glyph-name="overscore" horiz-adv-x="400" d="M47 617V639H353V617H47Z" />
<glyph unicode="&#xb0;" glyph-name="degree" horiz-adv-x="328" d="M164 412Q129 412 99 428T51 473T33 544Q33 585 51 615T99 661T164 678Q199 678 229 662T277 615T295 544Q295 503 277 474T229 428T164 412ZM164 436Q207 436 236 465T265 544Q265 594 236
624T164 654Q121 654 92 624T63 544Q63 495 92 466T164 436Z" />
<glyph unicode="&#xb1;" glyph-name="plusminus" horiz-adv-x="541" d="M259 116V331H30V351H259V562H283V351H512V331H283V116H259ZM30 0V20H512V0H30Z" />
<glyph unicode="&#xb2;" glyph-name="uni00B2" horiz-adv-x="345" d="M48 700L53 795Q73 806 100 812T165 819Q244 819 278 788T313 710Q313 664 267 624T141 537Q131 530 112 518T81 497H319V415H34V474Q58 497 76 515T115 554Q161 601 182 634T204 710Q204 751
191 777T142 804Q129 804 117 799T104 793L54 700H48Z" />
<glyph unicode="&#xb3;" glyph-name="uni00B3" horiz-adv-x="344" d="M166 405Q117 405 92 414T39 434L46 523H52L107 429Q107 429 120 424T152 418Q184 418 198 441T212 523Q212 576 199 594T155 613H121V626H152Q180 626 193 642T206 714Q206 764 194 784T160
804Q142 804 130 799T118 793L68 703H62L67 801Q89 809 113 814T171 819Q242 819 277 790T313 718Q313 690 285 662T195 623Q263 619 294 590T325 518Q325 469 283 437T166 405Z" />
<glyph unicode="&#xb4;" glyph-name="acute" horiz-adv-x="400" d="M129 573Q143 599 161 631T204 711Q221 743 237 757T274 772Q293 772 307 760T321 729Q321 710 308 694T264 655Q221 625 192 603T140 563L129 573Z" />
<glyph unicode="&#xb5;" glyph-name="uni00B5" horiz-adv-x="584" d="M63 -177L90 108L68 470L198 496L212 485Q208 388 205 322T199 208T197 115Q214 100 235 95T280 90Q307 90 331 99T374 138L364 470L493 496L508 485Q501 382 496 318T489 213T487 142Q488
94 498 79T534 64Q554 64 570 74L577 59Q561 26 535 6T472 -15Q426 -15 403 18T376 107Q339 -15 263 -15Q239 -15 217 6T179 71L206 -165L80 -193L63 -177Z" />
<glyph unicode="&#xb6;" glyph-name="paragraph" horiz-adv-x="611" d="M386 -119Q388 -43 388 34T389 191V640H314V124Q232 125 166 156T62 246T23 394Q23 462 47 512T114 595T209 644T319 660H570V650L548 643Q511 631 510 593Q509 535 509 470T509 350V192Q509
114 509 36T512 -119H386Z" />
<glyph unicode="&#xb7;" glyph-name="middot" horiz-adv-x="300" d="M150 249Q114 249 89 274T64 334Q64 369 89 395T150 421Q186 421 211 395T236 334Q236 299 211 274T150 249Z" />
<glyph unicode="&#xb8;" glyph-name="cedilla" horiz-adv-x="400" d="M146 -88L159 -1H180L174 -50Q233 -57 262 -80T291 -137Q291 -174 259 -199T162 -224Q138 -224 121 -221T87 -212L91 -195Q120 -204 144 -204Q172 -204 187 -188T203 -142Q203 -118 188 -105T146 -88Z" />
<glyph unicode="&#xb9;" glyph-name="uni00B9" horiz-adv-x="242" d="M14 415V421L60 437V755L15 750V758Q41 768 62 776T107 794T165 817L174 811L171 721V437L220 421V415H14Z" />
<glyph unicode="&#xba;" glyph-name="ordmasculine" horiz-adv-x="379" d="M190 739Q235 739 273 719T334 662T357 573Q357 495 310 450T190 405Q117 405 70 450T22 573Q22 625 45 662T106 719T190 739ZM190 705Q154 705 136 673T118 572Q118 503 136 471T190
439Q225 439 243 471T261 572Q261 640 243 672T190 705Z" />
<glyph unicode="&#xbb;" glyph-name="guillemotright" horiz-adv-x="536" d="M64 469L295 266V243L64 40L54 49L186 255L54 460L64 469ZM278 469L509 266V243L278 40L268 49L400 255L268 460L278 469Z" />
<glyph unicode="&#xbc;" glyph-name="onequarter" horiz-adv-x="698" d="M147 -21L127 -7L578 654L599 640L147 -21ZM14 248V254L60 270V588L15 583V591Q41 601 62 609T107 627T165 650L174 644L171 554V270L220 254V248H14ZM529 0V88H368V132L549 399H624V145H680V88H624V0H529ZM399
145H529V334L399 145Z" />
<glyph unicode="&#xbd;" glyph-name="onehalf" horiz-adv-x="789" d="M147 -21L127 -7L578 654L599 640L147 -21ZM14 252V258L60 274V592L15 587V595Q41 605 62 613T107 631T165 654L174 648L171 558V274L220 258V252H14ZM492 285L497 380Q517 391 544 397T609
404Q688 404 722 373T757 295Q757 249 711 209T585 122Q575 115 556 103T525 82H763V0H478V59Q502 82 520 100T559 139Q605 186 626 219T648 295Q648 336 635 362T586 389Q573 389 561 384T548 378L498 285H492Z" />
<glyph unicode="&#xbe;" glyph-name="threequarters" horiz-adv-x="776" d="M166 240Q117 240 92 249T39 269L46 358H52L107 264Q107 264 120 259T152 253Q184 253 198 276T212 358Q212 411 199 429T155 448H121V461H152Q180 461 193 477T206 549Q206 599 194
619T160 639Q142 639 130 634T118 628L68 538H62L67 636Q89 644 113 649T171 654Q242 654 277 625T313 553Q313 525 285 497T195 458Q263 454 294 425T325 353Q325 304 283 272T166 240ZM224 -21L204 -7L655 654L676 640L224 -21ZM606 0V88H445V132L626 399H701V145H757V88H701V0H606ZM476
145H606V334L476 145Z" />
<glyph unicode="&#xbf;" glyph-name="questiondown" horiz-adv-x="506" d="M252 336Q215 336 191 361T166 422Q166 458 190 483T252 508Q288 508 313 483T339 422Q339 387 314 362T252 336ZM248 -191Q147 -191 90 -148T32 -19Q32 40 61 81T135 148T230 187L235
268H253L262 98Q215 82 186 46T157 -42Q157 -102 179 -136T234 -171Q263 -171 278 -151T303 -97L316 -49Q325 -15 346 -1T391 11T432 -10T449 -61Q449 -100 420 -129T344 -175T248 -191Z" />
<glyph unicode="&#xc0;" glyph-name="Agrave" horiz-adv-x="650" d="M8 0V10L33 19Q53 27 64 38T82 71L288 662H373L576 67Q584 45 594 34T625 14L637 10V0H383V10L398 15Q419 23 423 37T422 72L375 216H153L105 75Q98 53 100 40T124 19L146 10V0H8ZM160 236H369L268
547L160 236ZM382 713Q345 730 311 745T239 776Q177 804 177 836Q177 853 188 864T219 876Q234 876 249 867T290 831Q314 806 340 779T392 725L382 713Z" />
<glyph unicode="&#xc1;" glyph-name="Aacute" horiz-adv-x="650" d="M8 0V10L33 19Q53 27 64 38T82 71L288 662H373L576 67Q584 45 594 34T625 14L637 10V0H383V10L398 15Q419 23 423 37T422 72L375 216H153L105 75Q98 53 100 40T124 19L146 10V0H8ZM160 236H369L268
547L160 236ZM239 725Q265 751 291 778T341 831Q366 858 381 867T412 876Q431 876 442 865T454 836Q454 804 392 776Q355 760 321 745T249 713L239 725Z" />
<glyph unicode="&#xc2;" glyph-name="Acircumflex" horiz-adv-x="650" d="M8 0V10L33 19Q53 27 64 38T82 71L288 662H373L576 67Q584 45 594 34T625 14L637 10V0H383V10L398 15Q419 23 423 37T422 72L375 216H153L105 75Q98 53 100 40T124 19L146 10V0H8ZM160
236H369L268 547L160 236ZM167 694L157 706L308 870H322L473 706L463 694L315 776L167 694Z" />
<glyph unicode="&#xc3;" glyph-name="Atilde" horiz-adv-x="650" d="M8 0V10L33 19Q53 27 64 38T82 71L288 662H373L576 67Q584 45 594 34T625 14L637 10V0H383V10L398 15Q419 23 423 37T422 72L375 216H153L105 75Q98 53 100 40T124 19L146 10V0H8ZM160 236H369L268
547L160 236ZM145 719Q153 781 178 820T246 860Q271 860 290 851T325 829Q342 816 359 801T398 785Q426 785 443 804T472 854L487 849Q478 788 454 748T386 708Q363 708 344 717T308 738Q292 753 274 768T234 783Q206 783 188 763T158 713L145 719Z" />
<glyph unicode="&#xc4;" glyph-name="Adieresis" horiz-adv-x="650" d="M8 0V10L33 19Q53 27 64 38T82 71L288 662H373L576 67Q584 45 594 34T625 14L637 10V0H383V10L398 15Q419 23 423 37T422 72L375 216H153L105 75Q98 53 100 40T124 19L146 10V0H8ZM160 236H369L268
547L160 236ZM193 720Q166 720 145 737T123 786Q123 817 144 834T193 852Q222 852 242 835T263 786Q263 755 243 738T193 720ZM436 720Q409 720 388 737T367 786Q367 817 388 834T436 852Q465 852 485 835T506 786Q506 755 486 738T436 720Z" />
<glyph unicode="&#xc5;" glyph-name="Aring" horiz-adv-x="650" d="M8 0V10L33 19Q53 27 64 38T82 71L288 662H373L576 67Q584 45 594 34T625 14L637 10V0H383V10L398 15Q419 23 423 37T422 72L375 216H153L105 75Q98 53 100 40T124 19L146 10V0H8ZM160 236H369L268
547L160 236ZM315 706Q274 706 244 732T213 803Q213 848 243 874T315 901Q356 901 386 876T417 803Q417 757 387 732T315 706ZM315 732Q347 732 365 752T383 803Q383 833 365 854T315 875Q284 875 266 854T247 803Q247 773 265 753T315 732Z" />
<glyph unicode="&#xc6;" glyph-name="AE" horiz-adv-x="898" d="M17 0V10L44 19Q70 28 86 42T114 80L366 589Q375 607 369 621T343 641L313 650V660H844L850 506H840L794 607Q780 640 743 640H569Q568 576 568 508T567 351H672Q703 351 716 378L744 430H754V250H744L716
304Q702 331 672 331H567Q567 248 567 193T567 97T569 20H765Q803 20 818 55L860 154H870L864 0H367V10L382 16Q417 29 418 68Q419 121 419 168T419 264H230L139 77Q118 36 162 20L192 10V0H17ZM240 285H419V636H412L240 285Z" />
<glyph unicode="&#xc7;" glyph-name="Ccedilla" horiz-adv-x="603" d="M366 -18Q269 -18 191 21T66 139T20 330Q20 416 48 481T124 590T236 656T371 678Q428 678 476 665T566 629L570 506H560L510 586Q500 605 488 620T458 644Q443 651 429 654T392 658Q334 658
287 627T211 525T182 329Q182 206 209 135T282 33T387 2Q419 2 438 6T476 20Q495 28 505 43T523 77L567 175H577L574 32Q532 10 480 -4T366 -18ZM345 -85L358 2H379L373 -47Q432 -54 461 -77T490 -134Q490 -171 458 -196T361 -221Q337 -221 320 -218T286 -209L290
-192Q319 -201 343 -201Q371 -201 386 -185T402 -139Q402 -115 387 -102T345 -85Z" />
<glyph unicode="&#xc8;" glyph-name="Egrave" horiz-adv-x="555" d="M22 0V10L45 19Q62 26 68 37T75 69V591Q75 611 70 622T45 641L22 650V660H501L507 506H497L454 600Q445 618 435 629T405 640H225V351H332Q352 351 362 361T381 390L401 430H411V250H401L381
292Q372 310 362 320T332 331H225V20H427Q447 20 458 30T476 60L517 154H527L521 0H22ZM343 713Q306 730 272 745T200 776Q138 804 138 836Q138 853 149 864T180 876Q195 876 210 867T251 831Q275 806 301 779T353 725L343 713Z" />
<glyph unicode="&#xc9;" glyph-name="Eacute" horiz-adv-x="555" d="M22 0V10L45 19Q62 26 68 37T75 69V591Q75 611 70 622T45 641L22 650V660H501L507 506H497L454 600Q445 618 435 629T405 640H225V351H332Q352 351 362 361T381 390L401 430H411V250H401L381
292Q372 310 362 320T332 331H225V20H427Q447 20 458 30T476 60L517 154H527L521 0H22ZM200 725Q226 751 252 778T302 831Q327 858 342 867T373 876Q392 876 403 865T415 836Q415 804 353 776Q316 760 282 745T210 713L200 725Z" />
<glyph unicode="&#xca;" glyph-name="Ecircumflex" horiz-adv-x="555" d="M22 0V10L45 19Q62 26 68 37T75 69V591Q75 611 70 622T45 641L22 650V660H501L507 506H497L454 600Q445 618 435 629T405 640H225V351H332Q352 351 362 361T381 390L401 430H411V250H401L381
292Q372 310 362 320T332 331H225V20H427Q447 20 458 30T476 60L517 154H527L521 0H22ZM128 694L118 706L269 870H283L434 706L424 694L276 776L128 694Z" />
<glyph unicode="&#xcb;" glyph-name="Edieresis" horiz-adv-x="555" d="M22 0V10L45 19Q62 26 68 37T75 69V591Q75 611 70 622T45 641L22 650V660H501L507 506H497L454 600Q445 618 435 629T405 640H225V351H332Q352 351 362 361T381 390L401 430H411V250H401L381
292Q372 310 362 320T332 331H225V20H427Q447 20 458 30T476 60L517 154H527L521 0H22ZM154 720Q127 720 106 737T84 786Q84 817 105 834T154 852Q183 852 203 835T224 786Q224 755 204 738T154 720ZM397 720Q370 720 349 737T328 786Q328 817 349 834T397 852Q426
852 446 835T467 786Q467 755 447 738T397 720Z" />
<glyph unicode="&#xcc;" glyph-name="Igrave" horiz-adv-x="301" d="M22 0V10L42 18Q62 25 68 37T75 69V591Q75 611 69 623T42 642L22 650V660H279V650L259 642Q239 635 233 623T226 591V69Q226 49 232 38T259 18L279 10V0H22ZM218 713Q181 730 147 745T75 776Q13
804 13 836Q13 853 24 864T55 876Q70 876 85 867T126 831Q150 806 176 779T228 725L218 713Z" />
<glyph unicode="&#xcd;" glyph-name="Iacute" horiz-adv-x="301" d="M22 0V10L42 18Q62 25 68 37T75 69V591Q75 611 69 623T42 642L22 650V660H279V650L259 642Q239 635 233 623T226 591V69Q226 49 232 38T259 18L279 10V0H22ZM75 725Q101 751 127 778T177 831Q202
858 217 867T248 876Q267 876 278 865T290 836Q290 804 228 776Q191 760 157 745T85 713L75 725Z" />
<glyph unicode="&#xce;" glyph-name="Icircumflex" horiz-adv-x="301" d="M22 0V10L42 18Q62 25 68 37T75 69V591Q75 611 69 623T42 642L22 650V660H279V650L259 642Q239 635 233 623T226 591V69Q226 49 232 38T259 18L279 10V0H22ZM3 694L-7 706L144 870H158L309
706L299 694L151 776L3 694Z" />
<glyph unicode="&#xcf;" glyph-name="Idieresis" horiz-adv-x="301" d="M22 0V10L42 18Q62 25 68 37T75 69V591Q75 611 69 623T42 642L22 650V660H279V650L259 642Q239 635 233 623T226 591V69Q226 49 232 38T259 18L279 10V0H22ZM29 720Q2 720 -19 737T-41 786Q-41
817 -20 834T29 852Q58 852 78 835T99 786Q99 755 79 738T29 720ZM272 720Q245 720 224 737T203 786Q203 817 224 834T272 852Q301 852 321 835T342 786Q342 755 322 738T272 720Z" />
<glyph unicode="&#xd0;" glyph-name="Eth" horiz-adv-x="648" d="M22 0V10L43 18Q75 31 75 69V325H35V352H75V591Q75 631 43 642L22 650V660H286Q392 660 468 621T586 508T628 331Q628 226 583 152T458 39T268 0H22ZM225 20H268Q340 20 384 48T448 144T469 330Q469
448 449 515T385 611T272 640H225V352H392V325H225V20Z" />
<glyph unicode="&#xd1;" glyph-name="Ntilde" horiz-adv-x="653" d="M35 0V10L68 20Q86 25 94 39T102 74V555Q91 579 85 591T70 611T48 633L31 650V660H208L540 207V584Q540 604 534 620T507 641L474 650V660H617V650L590 641Q572 635 568 620T564 585V-3H508L126
522V74Q126 54 132 40T157 20L187 10V0H35ZM156 719Q164 781 189 820T257 860Q282 860 301 851T336 829Q353 816 370 801T409 785Q437 785 454 804T483 854L498 849Q489 788 465 748T397 708Q374 708 355 717T319 738Q303 753 285 768T245 783Q217 783 199 763T169
713L156 719Z" />
<glyph unicode="&#xd2;" glyph-name="Ograve" horiz-adv-x="670" d="M335 -18Q274 -18 218 4T117 69T46 178T20 330Q20 416 46 481T117 589T218 655T335 678Q396 678 452 657T553 592T624 483T650 330Q650 245 624 180T554 71T453 5T335 -18ZM335 3Q390 3 424
32T473 133T489 330Q489 456 474 527T424 628T335 658Q281 658 247 629T198 528T182 330Q182 205 197 134T247 33T335 3ZM402 713Q365 730 331 745T259 776Q197 804 197 836Q197 853 208 864T239 876Q254 876 269 867T310 831Q334 806 360 779T412 725L402 713Z"
/>
<glyph unicode="&#xd3;" glyph-name="Oacute" horiz-adv-x="670" d="M335 -18Q274 -18 218 4T117 69T46 178T20 330Q20 416 46 481T117 589T218 655T335 678Q396 678 452 657T553 592T624 483T650 330Q650 245 624 180T554 71T453 5T335 -18ZM335 3Q390 3 424
32T473 133T489 330Q489 456 474 527T424 628T335 658Q281 658 247 629T198 528T182 330Q182 205 197 134T247 33T335 3ZM259 725Q285 751 311 778T361 831Q386 858 401 867T432 876Q451 876 462 865T474 836Q474 804 412 776Q375 760 341 745T269 713L259 725Z"
/>
<glyph unicode="&#xd4;" glyph-name="Ocircumflex" horiz-adv-x="670" d="M335 -18Q274 -18 218 4T117 69T46 178T20 330Q20 416 46 481T117 589T218 655T335 678Q396 678 452 657T553 592T624 483T650 330Q650 245 624 180T554 71T453 5T335 -18ZM335 3Q390 3
424 32T473 133T489 330Q489 456 474 527T424 628T335 658Q281 658 247 629T198 528T182 330Q182 205 197 134T247 33T335 3ZM187 694L177 706L328 870H342L493 706L483 694L335 776L187 694Z" />
<glyph unicode="&#xd5;" glyph-name="Otilde" horiz-adv-x="670" d="M335 -18Q274 -18 218 4T117 69T46 178T20 330Q20 416 46 481T117 589T218 655T335 678Q396 678 452 657T553 592T624 483T650 330Q650 245 624 180T554 71T453 5T335 -18ZM335 3Q390 3 424
32T473 133T489 330Q489 456 474 527T424 628T335 658Q281 658 247 629T198 528T182 330Q182 205 197 134T247 33T335 3ZM165 719Q173 781 198 820T266 860Q291 860 310 851T345 829Q362 816 379 801T418 785Q446 785 463 804T492 854L507 849Q498 788 474 748T406
708Q383 708 364 717T328 738Q312 753 294 768T254 783Q226 783 208 763T178 713L165 719Z" />
<glyph unicode="&#xd6;" glyph-name="Odieresis" horiz-adv-x="670" d="M335 -18Q274 -18 218 4T117 69T46 178T20 330Q20 416 46 481T117 589T218 655T335 678Q396 678 452 657T553 592T624 483T650 330Q650 245 624 180T554 71T453 5T335 -18ZM335 3Q390 3 424
32T473 133T489 330Q489 456 474 527T424 628T335 658Q281 658 247 629T198 528T182 330Q182 205 197 134T247 33T335 3ZM213 720Q186 720 165 737T143 786Q143 817 164 834T213 852Q242 852 262 835T283 786Q283 755 263 738T213 720ZM456 720Q429 720 408 737T387
786Q387 817 408 834T456 852Q485 852 505 835T526 786Q526 755 506 738T456 720Z" />
<glyph unicode="&#xd7;" glyph-name="multiply" horiz-adv-x="541" d="M77 115L62 130L256 324L62 518L77 533L271 339L465 533L480 518L286 324L480 130L465 115L271 309L77 115Z" />
<glyph unicode="&#xd8;" glyph-name="Oslash" horiz-adv-x="670" d="M71 -13L48 6L107 79Q67 122 44 185T20 330Q20 416 46 481T117 589T218 655T335 678Q390 678 442 660T537 606L600 683L623 664L559 585Q600 542 625 478T650 330Q650 245 624 180T554 71T453
5T335 -18Q278 -18 225 1T129 58L71 -13ZM182 330Q182 242 191 181L472 526Q455 595 422 626T335 658Q253 658 218 581T182 330ZM335 3Q418 3 453 79T489 330Q489 424 479 488L197 142Q213 69 247 36T335 3Z" />
<glyph unicode="&#xd9;" glyph-name="Ugrave" horiz-adv-x="649" d="M339 -18Q263 -18 205 9T114 94T81 249V594Q81 632 42 644L20 650V660H297V650L268 642Q231 633 231 592V223Q231 130 270 86T382 41Q458 41 502 88T547 221V588Q547 608 541 623T514 644L489
650V660H629V650L602 643Q583 639 577 624T571 589V223Q571 150 542 96T461 12T339 -18ZM467 713Q430 730 396 745T324 776Q262 804 262 836Q262 853 273 864T304 876Q319 876 334 867T375 831Q399 806 425 779T477 725L467 713Z" />
<glyph unicode="&#xda;" glyph-name="Uacute" horiz-adv-x="649" d="M339 -18Q263 -18 205 9T114 94T81 249V594Q81 632 42 644L20 650V660H297V650L268 642Q231 633 231 592V223Q231 130 270 86T382 41Q458 41 502 88T547 221V588Q547 608 541 623T514 644L489
650V660H629V650L602 643Q583 639 577 624T571 589V223Q571 150 542 96T461 12T339 -18ZM324 725Q350 751 376 778T426 831Q451 858 466 867T497 876Q516 876 527 865T539 836Q539 804 477 776Q440 760 406 745T334 713L324 725Z" />
<glyph unicode="&#xdb;" glyph-name="Ucircumflex" horiz-adv-x="649" d="M339 -18Q263 -18 205 9T114 94T81 249V594Q81 632 42 644L20 650V660H297V650L268 642Q231 633 231 592V223Q231 130 270 86T382 41Q458 41 502 88T547 221V588Q547 608 541 623T514 644L489
650V660H629V650L602 643Q583 639 577 624T571 589V223Q571 150 542 96T461 12T339 -18ZM252 694L242 706L393 870H407L558 706L548 694L400 776L252 694Z" />
<glyph unicode="&#xdc;" glyph-name="Udieresis" horiz-adv-x="649" d="M339 -18Q263 -18 205 9T114 94T81 249V594Q81 632 42 644L20 650V660H297V650L268 642Q231 633 231 592V223Q231 130 270 86T382 41Q458 41 502 88T547 221V588Q547 608 541 623T514 644L489
650V660H629V650L602 643Q583 639 577 624T571 589V223Q571 150 542 96T461 12T339 -18ZM278 720Q251 720 230 737T208 786Q208 817 229 834T278 852Q307 852 327 835T348 786Q348 755 328 738T278 720ZM521 720Q494 720 473 737T452 786Q452 817 473 834T521 852Q550
852 570 835T591 786Q591 755 571 738T521 720Z" />
<glyph unicode="&#xdd;" glyph-name="Yacute" horiz-adv-x="590" d="M165 0V10L195 18Q230 28 230 68V258L65 594Q56 614 49 624T26 641L8 650V660H276V650L258 643Q236 634 234 619T242 580L360 318L492 590Q500 606 499 623T477 645L463 650V660H583V650L564
643Q545 636 536 624T518 592L381 304V68Q381 48 388 36T415 18L446 10V0H165ZM261 725Q287 751 313 778T363 831Q388 858 403 867T434 876Q453 876 464 865T476 836Q476 804 414 776Q377 760 343 745T271 713L261 725Z" />
<glyph unicode="&#xde;" glyph-name="Thorn" horiz-adv-x="577" d="M22 0V10L38 16Q74 28 74 67Q75 124 75 190T75 310V350Q75 403 75 469T74 593Q74 632 38 644L22 650V660H276V650L261 644Q225 631 225 593Q225 579 225 564T224 535H283Q430 535 494 484T559
344Q559 288 534 243T445 170T268 143H224Q224 124 224 106T225 67Q225 28 261 16L276 10V0H22ZM223 163H276Q342 163 378 203T415 341Q415 439 381 477T275 515H224Q223 474 223 433T223 350V163Z" />
<glyph unicode="&#xdf;" glyph-name="germandbls" horiz-adv-x="644" d="M410 -15Q372 -15 339 -8T270 16L271 140H282L305 81Q314 57 325 40T359 14Q370 10 382 8T408 5Q446 5 473 29T501 95Q501 131 479 152T405 195Q351 217 320 247T289 324Q289 352 302 371T336
407T383 445Q450 505 450 577Q450 630 422 660T341 691Q301 691 273 670T231 601Q221 570 217 525T213 404V206Q213 104 216 0H26V10L31 12Q69 24 70 62Q71 82 71 108T71 161T71 206V427Q71 498 91 543T138 618Q175 661 230 686T349 711Q447 711 501 673T555 581Q555
541 528 512T452 454Q407 432 388 416T368 383Q368 363 397 348T490 307Q555 278 583 240T611 145Q611 98 585 62T513 6T410 -15Z" />
<glyph unicode="&#xe0;" glyph-name="agrave" horiz-adv-x="518" d="M166 -15Q108 -15 69 18T29 113Q29 160 77 199T228 259Q244 262 264 265T306 273V352Q306 420 290 447T238 475Q214 475 200 460T182 406L180 395Q178 352 159 332T112 312Q86 312 69 328T52
371Q52 412 80 440T156 482T258 496Q347 496 395 453T444 311V90Q444 45 486 45H508L517 37Q498 13 476 0T412 -13Q368 -13 343 7T309 62Q279 30 248 8T166 -15ZM227 46Q247 46 264 55T306 85V253Q296 251 286 249T263 245Q217 233 190 205T162 128Q162 87 181
67T227 46ZM294 563Q272 580 243 602T171 655Q140 677 127 693T113 729Q113 747 127 759T161 772Q181 772 197 758T230 711Q255 664 273 632T306 573L294 563Z" />
<glyph unicode="&#xe1;" glyph-name="aacute" horiz-adv-x="518" d="M166 -15Q108 -15 69 18T29 113Q29 160 77 199T228 259Q244 262 264 265T306 273V352Q306 420 290 447T238 475Q214 475 200 460T182 406L180 395Q178 352 159 332T112 312Q86 312 69 328T52
371Q52 412 80 440T156 482T258 496Q347 496 395 453T444 311V90Q444 45 486 45H508L517 37Q498 13 476 0T412 -13Q368 -13 343 7T309 62Q279 30 248 8T166 -15ZM227 46Q247 46 264 55T306 85V253Q296 251 286 249T263 245Q217 233 190 205T162 128Q162 87 181
67T227 46ZM197 573Q211 599 229 631T272 711Q289 743 305 757T342 772Q361 772 375 760T389 729Q389 710 376 694T332 655Q289 625 260 603T208 563L197 573Z" />
<glyph unicode="&#xe2;" glyph-name="acircumflex" horiz-adv-x="518" d="M166 -15Q108 -15 69 18T29 113Q29 160 77 199T228 259Q244 262 264 265T306 273V352Q306 420 290 447T238 475Q214 475 200 460T182 406L180 395Q178 352 159 332T112 312Q86 312 69 328T52
371Q52 412 80 440T156 482T258 496Q347 496 395 453T444 311V90Q444 45 486 45H508L517 37Q498 13 476 0T412 -13Q368 -13 343 7T309 62Q279 30 248 8T166 -15ZM227 46Q247 46 264 55T306 85V253Q296 251 286 249T263 245Q217 233 190 205T162 128Q162 87 181
67T227 46ZM119 545L106 557L248 751H262L404 557L391 545L255 651L119 545Z" />
<glyph unicode="&#xe3;" glyph-name="atilde" horiz-adv-x="518" d="M166 -15Q108 -15 69 18T29 113Q29 160 77 199T228 259Q244 262 264 265T306 273V352Q306 420 290 447T238 475Q214 475 200 460T182 406L180 395Q178 352 159 332T112 312Q86 312 69 328T52
371Q52 412 80 440T156 482T258 496Q347 496 395 453T444 311V90Q444 45 486 45H508L517 37Q498 13 476 0T412 -13Q368 -13 343 7T309 62Q279 30 248 8T166 -15ZM227 46Q247 46 264 55T306 85V253Q296 251 286 249T263 245Q217 233 190 205T162 128Q162 87 181
67T227 46ZM88 585Q96 650 122 686T189 722Q215 722 231 714T263 692Q279 677 294 664T329 650Q356 650 375 668T407 717L422 712Q414 648 388 611T322 574Q297 574 279 582T247 604Q232 618 216 631T180 645Q153 645 134 628T103 580L88 585Z" />
<glyph unicode="&#xe4;" glyph-name="adieresis" horiz-adv-x="518" d="M166 -15Q108 -15 69 18T29 113Q29 160 77 199T228 259Q244 262 264 265T306 273V352Q306 420 290 447T238 475Q214 475 200 460T182 406L180 395Q178 352 159 332T112 312Q86 312 69 328T52
371Q52 412 80 440T156 482T258 496Q347 496 395 453T444 311V90Q444 45 486 45H508L517 37Q498 13 476 0T412 -13Q368 -13 343 7T309 62Q279 30 248 8T166 -15ZM227 46Q247 46 264 55T306 85V253Q296 251 286 249T263 245Q217 233 190 205T162 128Q162 87 181
67T227 46ZM371 580Q343 580 321 598T298 649Q298 681 320 699T371 718Q401 718 422 700T444 649Q444 617 423 599T371 580ZM139 580Q110 580 88 598T66 649Q66 681 88 699T139 718Q168 718 190 700T212 649Q212 617 190 599T139 580Z" />
<glyph unicode="&#xe5;" glyph-name="aring" horiz-adv-x="518" d="M166 -15Q108 -15 69 18T29 113Q29 160 77 199T228 259Q244 262 264 265T306 273V352Q306 420 290 447T238 475Q214 475 200 460T182 406L180 395Q178 352 159 332T112 312Q86 312 69 328T52
371Q52 412 80 440T156 482T258 496Q347 496 395 453T444 311V90Q444 45 486 45H508L517 37Q498 13 476 0T412 -13Q368 -13 343 7T309 62Q279 30 248 8T166 -15ZM227 46Q247 46 264 55T306 85V253Q296 251 286 249T263 245Q217 233 190 205T162 128Q162 87 181
67T227 46ZM255 552Q207 552 173 582T138 664Q138 715 172 745T255 775Q303 775 337 746T372 664Q372 612 338 582T255 552ZM255 576Q284 576 299 596T314 664Q314 711 299 731T255 752Q227 752 212 732T196 664Q196 617 211 597T255 576Z" />
<glyph unicode="&#xe6;" glyph-name="ae" horiz-adv-x="785" d="M166 -15Q108 -15 69 18T29 113Q29 160 77 199T228 259Q244 262 264 265T306 273V350Q306 421 289 448T239 475Q211 474 199 461T184 420L180 395Q178 352 159 332T112 312Q86 312 69 328T52 371Q52
412 80 440T156 482T258 496Q305 496 341 483T398 437Q431 467 470 481T550 496Q615 496 660 470T730 398T755 294Q755 283 754 272T750 251H452Q454 146 494 97T607 48Q654 48 684 64T741 111L751 102Q720 47 669 16T545 -15Q478 -15 426 12T343 90Q294 39 255
12T166 -15ZM453 271H623Q632 363 615 419T546 476Q522 476 501 459T468 397T453 271ZM227 46Q247 46 273 58T334 108Q320 135 313 168T306 239V253Q289 249 263 245Q217 233 190 205T162 128Q162 87 181 67T227 46Z" />
<glyph unicode="&#xe7;" glyph-name="ccedilla" horiz-adv-x="494" d="M268 -15Q200 -15 145 14T57 100T24 239Q24 320 59 377T154 465T285 496Q343 496 383 477T444 428T465 364Q465 336 448 321T404 305Q375 305 357 326T336 381Q335 403 337 418T337 450Q333
467 325 472T301 478Q240 478 207 425T173 256Q173 155 210 102T326 48Q373 48 402 65T458 116L468 108Q443 49 391 17T268 -15ZM248 -85L261 2H282L276 -47Q335 -54 364 -77T393 -134Q393 -171 361 -196T264 -221Q240 -221 223 -218T189 -209L193 -192Q222 -201
246 -201Q274 -201 289 -185T305 -139Q305 -115 290 -102T248 -85Z" />
<glyph unicode="&#xe8;" glyph-name="egrave" horiz-adv-x="507" d="M271 496Q336 496 382 470T452 398T477 294Q477 283 476 272T472 251H174Q175 143 212 96T324 48Q374 48 405 64T463 111L473 102Q442 47 391 16T267 -15Q196 -15 141 15T55 103T24 239Q24 321
60 378T152 466T271 496ZM268 476Q239 476 219 459T187 397T174 271H345Q355 380 337 428T268 476ZM312 563Q290 580 261 602T189 655Q158 677 145 693T131 729Q131 747 145 759T179 772Q199 772 215 758T248 711Q273 664 291 632T324 573L312 563Z" />
<glyph unicode="&#xe9;" glyph-name="eacute" horiz-adv-x="507" d="M271 496Q336 496 382 470T452 398T477 294Q477 283 476 272T472 251H174Q175 143 212 96T324 48Q374 48 405 64T463 111L473 102Q442 47 391 16T267 -15Q196 -15 141 15T55 103T24 239Q24 321
60 378T152 466T271 496ZM268 476Q239 476 219 459T187 397T174 271H345Q355 380 337 428T268 476ZM215 573Q229 599 247 631T290 711Q307 743 323 757T360 772Q379 772 393 760T407 729Q407 710 394 694T350 655Q307 625 278 603T226 563L215 573Z" />
<glyph unicode="&#xea;" glyph-name="ecircumflex" horiz-adv-x="507" d="M271 496Q336 496 382 470T452 398T477 294Q477 283 476 272T472 251H174Q175 143 212 96T324 48Q374 48 405 64T463 111L473 102Q442 47 391 16T267 -15Q196 -15 141 15T55 103T24 239Q24
321 60 378T152 466T271 496ZM268 476Q239 476 219 459T187 397T174 271H345Q355 380 337 428T268 476ZM137 545L124 557L266 751H280L422 557L409 545L273 651L137 545Z" />
<glyph unicode="&#xeb;" glyph-name="edieresis" horiz-adv-x="507" d="M271 496Q336 496 382 470T452 398T477 294Q477 283 476 272T472 251H174Q175 143 212 96T324 48Q374 48 405 64T463 111L473 102Q442 47 391 16T267 -15Q196 -15 141 15T55 103T24 239Q24
321 60 378T152 466T271 496ZM268 476Q239 476 219 459T187 397T174 271H345Q355 380 337 428T268 476ZM389 580Q361 580 339 598T316 649Q316 681 338 699T389 718Q419 718 440 700T462 649Q462 617 441 599T389 580ZM157 580Q128 580 106 598T84 649Q84 681 106
699T157 718Q186 718 208 700T230 649Q230 617 208 599T157 580Z" />
<glyph unicode="&#xec;" glyph-name="igrave" horiz-adv-x="280" d="M22 0V10L36 14Q56 20 63 32T70 64Q70 99 70 139T71 210V258Q71 289 71 316T70 377Q69 398 63 408T36 423L22 426V436L205 495L215 485L212 343V63Q213 43 220 31T246 13L256 10V0H22ZM176 563Q154
580 125 602T53 655Q22 677 9 693T-5 729Q-5 747 9 759T43 772Q63 772 79 758T112 711Q137 664 155 632T188 573L176 563Z" />
<glyph unicode="&#xed;" glyph-name="iacute" horiz-adv-x="280" d="M22 0V10L36 14Q56 20 63 32T70 64Q70 99 70 139T71 210V258Q71 289 71 316T70 377Q69 398 63 408T36 423L22 426V436L205 495L215 485L212 343V63Q213 43 220 31T246 13L256 10V0H22ZM79 573Q93
599 111 631T154 711Q171 743 187 757T224 772Q243 772 257 760T271 729Q271 710 258 694T214 655Q171 625 142 603T90 563L79 573Z" />
<glyph unicode="&#xee;" glyph-name="icircumflex" horiz-adv-x="280" d="M22 0V10L36 14Q56 20 63 32T70 64Q70 99 70 139T71 210V258Q71 289 71 316T70 377Q69 398 63 408T36 423L22 426V436L205 495L215 485L212 343V63Q213 43 220 31T246 13L256 10V0H22ZM1
545L-12 557L130 751H144L286 557L273 545L137 651L1 545Z" />
<glyph unicode="&#xef;" glyph-name="idieresis" horiz-adv-x="280" d="M22 0V10L36 14Q56 20 63 32T70 64Q70 99 70 139T71 210V258Q71 289 71 316T70 377Q69 398 63 408T36 423L22 426V436L205 495L215 485L212 343V63Q213 43 220 31T246 13L256 10V0H22ZM253
580Q225 580 203 598T180 649Q180 681 202 699T253 718Q283 718 304 700T326 649Q326 617 305 599T253 580ZM21 580Q-8 580 -30 598T-52 649Q-52 681 -30 699T21 718Q50 718 72 700T94 649Q94 617 72 599T21 580Z" />
<glyph unicode="&#xf0;" glyph-name="eth" horiz-adv-x="552" d="M267 -15Q209 -15 156 13T68 97T33 238Q33 316 67 370T155 452T270 481Q319 481 356 454Q334 543 290 601L130 524L118 545L274 620Q249 649 216 673T141 722L149 739Q250 706 329 646L474 716L486
695L350 630Q427 565 472 476T517 279Q517 180 484 115T393 18T267 -15ZM277 5Q327 5 350 65T373 241Q373 349 348 405T277 461Q184 461 184 232Q184 121 207 63T277 5Z" />
<glyph unicode="&#xf1;" glyph-name="ntilde" horiz-adv-x="578" d="M20 0V10L34 14Q69 24 69 63V376Q69 398 62 408T35 423L20 427V437L191 495L201 485L209 425Q244 456 288 476T375 496Q441 496 476 460T512 350V62Q512 23 550 13L559 10V0H323V10L336 14Q371
25 371 63V382Q371 446 307 446Q263 446 211 402V62Q211 23 246 13L255 10V0H20ZM130 585Q138 650 164 686T231 722Q257 722 273 714T305 692Q321 677 336 664T371 650Q398 650 417 668T449 717L464 712Q456 648 430 611T364 574Q339 574 321 582T289 604Q274 618
258 631T222 645Q195 645 176 628T145 580L130 585Z" />
<glyph unicode="&#xf2;" glyph-name="ograve" horiz-adv-x="545" d="M273 -15Q197 -15 141 16T55 106T24 242Q24 320 56 377T145 465T273 496Q344 496 400 466T488 378T521 242Q521 163 491 106T405 17T273 -15ZM273 5Q308 5 329 25T359 96T369 240Q369 334 360
385T329 456T273 476Q238 476 217 456T186 385T176 240Q176 147 185 96T216 25T273 5ZM312 563Q290 580 261 602T189 655Q158 677 145 693T131 729Q131 747 145 759T179 772Q199 772 215 758T248 711Q273 664 291 632T324 573L312 563Z" />
<glyph unicode="&#xf3;" glyph-name="oacute" horiz-adv-x="545" d="M273 -15Q197 -15 141 16T55 106T24 242Q24 320 56 377T145 465T273 496Q344 496 400 466T488 378T521 242Q521 163 491 106T405 17T273 -15ZM273 5Q308 5 329 25T359 96T369 240Q369 334 360
385T329 456T273 476Q238 476 217 456T186 385T176 240Q176 147 185 96T216 25T273 5ZM215 573Q229 599 247 631T290 711Q307 743 323 757T360 772Q379 772 393 760T407 729Q407 710 394 694T350 655Q307 625 278 603T226 563L215 573Z" />
<glyph unicode="&#xf4;" glyph-name="ocircumflex" horiz-adv-x="545" d="M273 -15Q197 -15 141 16T55 106T24 242Q24 320 56 377T145 465T273 496Q344 496 400 466T488 378T521 242Q521 163 491 106T405 17T273 -15ZM273 5Q308 5 329 25T359 96T369 240Q369 334
360 385T329 456T273 476Q238 476 217 456T186 385T176 240Q176 147 185 96T216 25T273 5ZM137 545L124 557L266 751H280L422 557L409 545L273 651L137 545Z" />
<glyph unicode="&#xf5;" glyph-name="otilde" horiz-adv-x="545" d="M273 -15Q197 -15 141 16T55 106T24 242Q24 320 56 377T145 465T273 496Q344 496 400 466T488 378T521 242Q521 163 491 106T405 17T273 -15ZM273 5Q308 5 329 25T359 96T369 240Q369 334 360
385T329 456T273 476Q238 476 217 456T186 385T176 240Q176 147 185 96T216 25T273 5ZM106 585Q114 650 140 686T207 722Q233 722 249 714T281 692Q297 677 312 664T347 650Q374 650 393 668T425 717L440 712Q432 648 406 611T340 574Q315 574 297 582T265 604Q250
618 234 631T198 645Q171 645 152 628T121 580L106 585Z" />
<glyph unicode="&#xf6;" glyph-name="odieresis" horiz-adv-x="545" d="M273 -15Q197 -15 141 16T55 106T24 242Q24 320 56 377T145 465T273 496Q344 496 400 466T488 378T521 242Q521 163 491 106T405 17T273 -15ZM273 5Q308 5 329 25T359 96T369 240Q369 334
360 385T329 456T273 476Q238 476 217 456T186 385T176 240Q176 147 185 96T216 25T273 5ZM389 580Q361 580 339 598T316 649Q316 681 338 699T389 718Q419 718 440 700T462 649Q462 617 441 599T389 580ZM157 580Q128 580 106 598T84 649Q84 681 106 699T157 718Q186
718 208 700T230 649Q230 617 208 599T157 580Z" />
<glyph unicode="&#xf7;" glyph-name="divide" horiz-adv-x="541" d="M271 443Q240 443 219 463T198 513Q198 543 219 562T271 582Q301 582 322 563T343 513Q343 483 322 463T271 443ZM30 314V334H512V314H30ZM271 66Q240 66 219 86T198 136Q198 166 219 186T271
206Q301 206 322 186T343 136Q343 106 322 86T271 66Z" />
<glyph unicode="&#xf8;" glyph-name="oslash" d="M87 -23L66 -7L109 46Q72 80 53 129T33 242Q33 320 65 377T154 465T281 496Q369 496 432 450L475 504L495 488L452 434Q488 401 508 353T529 242Q529 163 499 106T413 17T281 -15Q191 -15 129 30L87 -23ZM179 240Q179
181 184 140L373 377Q363 431 340 453T281 476Q245 476 223 455T190 382T179 240ZM281 5Q317 5 339 26T372 99T383 240Q383 300 378 342L189 104Q199 50 222 28T281 5Z" />
<glyph unicode="&#xf9;" glyph-name="ugrave" horiz-adv-x="567" d="M201 -15Q162 -15 130 0T79 48T61 137L64 394Q64 417 56 427T31 441L19 445V455L198 490L208 480L203 338V97Q203 65 221 50T268 35Q296 35 318 43T362 67L366 393Q366 416 359 425T333 439L323
442V452L498 490L508 480L505 338V67Q505 45 511 33T537 13L547 10V0L372 -10L363 49Q330 22 292 4T201 -15ZM321 563Q299 580 270 602T198 655Q167 677 154 693T140 729Q140 747 154 759T188 772Q208 772 224 758T257 711Q282 664 300 632T333 573L321 563Z" />
<glyph unicode="&#xfa;" glyph-name="uacute" horiz-adv-x="567" d="M201 -15Q162 -15 130 0T79 48T61 137L64 394Q64 417 56 427T31 441L19 445V455L198 490L208 480L203 338V97Q203 65 221 50T268 35Q296 35 318 43T362 67L366 393Q366 416 359 425T333 439L323
442V452L498 490L508 480L505 338V67Q505 45 511 33T537 13L547 10V0L372 -10L363 49Q330 22 292 4T201 -15ZM224 573Q238 599 256 631T299 711Q316 743 332 757T369 772Q388 772 402 760T416 729Q416 710 403 694T359 655Q316 625 287 603T235 563L224 573Z" />
<glyph unicode="&#xfb;" glyph-name="ucircumflex" horiz-adv-x="567" d="M201 -15Q162 -15 130 0T79 48T61 137L64 394Q64 417 56 427T31 441L19 445V455L198 490L208 480L203 338V97Q203 65 221 50T268 35Q296 35 318 43T362 67L366 393Q366 416 359 425T333
439L323 442V452L498 490L508 480L505 338V67Q505 45 511 33T537 13L547 10V0L372 -10L363 49Q330 22 292 4T201 -15ZM146 545L133 557L275 751H289L431 557L418 545L282 651L146 545Z" />
<glyph unicode="&#xfc;" glyph-name="udieresis" horiz-adv-x="567" d="M201 -15Q162 -15 130 0T79 48T61 137L64 394Q64 417 56 427T31 441L19 445V455L198 490L208 480L203 338V97Q203 65 221 50T268 35Q296 35 318 43T362 67L366 393Q366 416 359 425T333 439L323
442V452L498 490L508 480L505 338V67Q505 45 511 33T537 13L547 10V0L372 -10L363 49Q330 22 292 4T201 -15ZM398 580Q370 580 348 598T325 649Q325 681 347 699T398 718Q428 718 449 700T471 649Q471 617 450 599T398 580ZM166 580Q137 580 115 598T93 649Q93
681 115 699T166 718Q195 718 217 700T239 649Q239 617 217 599T166 580Z" />
<glyph unicode="&#xfd;" glyph-name="yacute" horiz-adv-x="536" d="M112 -240Q72 -240 49 -220T25 -169Q25 -141 45 -124T90 -107Q115 -107 132 -117T162 -148L169 -156Q191 -186 213 -155Q222 -140 233 -116T260 -50L66 414Q59 433 51 444T25 464L7 471V481H256V472L236
464Q214 457 214 442T221 403L325 133L424 406Q432 429 430 444T405 466L384 471V481H523V471L501 464Q478 457 469 444T452 408L291 -31Q252 -136 213 -188T112 -240ZM240 573Q254 599 272 631T315 711Q332 743 348 757T385 772Q404 772 418 760T432 729Q432 710
419 694T375 655Q332 625 303 603T251 563L240 573Z" />
<glyph unicode="&#xfe;" glyph-name="thorn" horiz-adv-x="580" d="M22 -230V-220L30 -218Q69 -208 70 -169Q71 -124 71 -85T72 -9V613Q72 653 34 664L23 667V677L206 720L218 711L214 571V457Q247 475 287 485T368 496Q454 496 505 431T556 243Q556 123 500 54T343
-15Q263 -15 211 8V-16Q211 -47 211 -84T212 -166Q214 -206 251 -216L265 -220V-230H22ZM295 14Q346 14 375 66T405 239Q405 360 377 408T296 457Q258 457 214 433V30Q252 14 295 14Z" />
<glyph unicode="&#xff;" glyph-name="ydieresis" horiz-adv-x="536" d="M112 -240Q72 -240 49 -220T25 -169Q25 -141 45 -124T90 -107Q115 -107 132 -117T162 -148L169 -156Q191 -186 213 -155Q222 -140 233 -116T260 -50L66 414Q59 433 51 444T25 464L7 471V481H256V472L236
464Q214 457 214 442T221 403L325 133L424 406Q432 429 430 444T405 466L384 471V481H523V471L501 464Q478 457 469 444T452 408L291 -31Q252 -136 213 -188T112 -240ZM414 580Q386 580 364 598T341 649Q341 681 363 699T414 718Q444 718 465 700T487 649Q487 617
466 599T414 580ZM182 580Q153 580 131 598T109 649Q109 681 131 699T182 718Q211 718 233 700T255 649Q255 617 233 599T182 580Z" />
<glyph unicode="&#x2013;" glyph-name="endash" horiz-adv-x="532" d="M40 240V267H492V240H40Z" />
<glyph unicode="&#x2014;" glyph-name="emdash" horiz-adv-x="832" d="M40 240V267H792V240H40Z" />
<glyph unicode="&#x2018;" glyph-name="quoteleft" horiz-adv-x="215" d="M109 458Q72 458 50 484T27 554Q27 610 60 658T142 731L148 719Q127 703 111 678T88 616L109 611Q144 603 163 582T183 530Q183 498 162 478T109 458Z" />
<glyph unicode="&#x2019;" glyph-name="quoteright" horiz-adv-x="215" d="M106 731Q143 731 165 705T188 635Q188 579 155 531T73 458L67 470Q88 486 104 511T127 573L106 578Q71 586 52 607T32 659Q32 691 53 711T106 731Z" />
<glyph unicode="&#x201a;" glyph-name="quotesinglbase" horiz-adv-x="215" d="M106 148Q143 148 165 122T188 52Q188 -4 155 -52T73 -125L67 -113Q88 -97 104 -72T127 -10L106 -5Q71 3 52 24T32 76Q32 108 53 128T106 148Z" />
<glyph unicode="&#x201c;" glyph-name="quotedblleft" horiz-adv-x="426" d="M109 458Q72 458 50 484T27 554Q27 610 60 658T142 731L148 719Q127 703 111 678T88 616L109 611Q144 603 163 582T183 530Q183 498 162 478T109 458ZM320 458Q283 458 261 484T238
554Q238 610 271 658T353 731L359 719Q338 703 322 678T299 616L320 611Q355 603 374 582T394 530Q394 498 373 478T320 458Z" />
<glyph unicode="&#x201d;" glyph-name="quotedblright" horiz-adv-x="426" d="M106 731Q143 731 165 705T188 635Q188 579 155 531T73 458L67 470Q88 486 104 511T127 573L106 578Q71 586 52 607T32 659Q32 691 53 711T106 731ZM317 731Q354 731 376 705T399 635Q399
579 366 531T284 458L278 470Q299 486 315 511T338 573L317 578Q282 586 263 607T243 659Q243 691 264 711T317 731Z" />
<glyph unicode="&#x201e;" glyph-name="quotedblbase" horiz-adv-x="426" d="M106 148Q143 148 165 122T188 52Q188 -4 155 -52T73 -125L67 -113Q88 -97 104 -72T127 -10L106 -5Q71 3 52 24T32 76Q32 108 53 128T106 148ZM317 148Q354 148 376 122T399 52Q399
-4 366 -52T284 -125L278 -113Q299 -97 315 -72T338 -10L317 -5Q282 3 263 24T243 76Q243 108 264 128T317 148Z" />
<glyph unicode="&#x2022;" glyph-name="bullet" horiz-adv-x="324" d="M162 196Q110 196 73 231T35 324Q35 383 72 418T162 453Q214 453 251 418T289 324Q289 266 252 231T162 196Z" />
<glyph unicode="&#x2039;" glyph-name="guilsinglleft" horiz-adv-x="322" d="M258 36L27 239V262L258 465L268 456L136 250L268 45L258 36Z" />
<glyph unicode="&#x203a;" glyph-name="guilsinglright" horiz-adv-x="322" d="M64 469L295 266V243L64 40L54 49L186 255L54 460L64 469Z" />
</font>
</defs>
</svg>
